Conectarse

Recuperar mi contraseña



Noticias Undercity

Mas !
Los posteadores más activos del mes
ad-team
 
gokuzgt1
 

Notificaciones
Afiliados Elite
botones 40x40
Hopes and Dreams (Undertale)
Botones 88x31

No estás conectado. Conéctate o registrate

Ver el tema anterior Ver el tema siguiente Ir abajo Mensaje [Página 1 de 1.]

1 The Incredible Hulk [2008] FullHD 1080p [Ing-Lat]

« el Mar Sep 19, 2017 3:53 pm »

ferny2006

avatar
Memoria LLena
Memoria LLena
Ver perfil de usuario



Titulo original: The Incredible Hulk
Ano: 2008
Duracion: 114 min.
Pais: Estados Unidos
Director: Louis Leterrier
Reparto: Edward Norton, Liv Tyler, Tim Roth, William Hurt, Tim Blake Nelson, Ty Burrell, Stan Lee, Michael Kenneth Williams, Robert Downey Jr., Peter Mensah
Productora: Universal Pictures / Marvel Enterprises / Marvel Studios / Valhalla Motion Pictures
Genero: Fantastico. Accion. Ciencia ficcion | Comic. Superheroes. Marvel Comics
Sinopsis: El cientifico Bruce Banner (Edward Norton) recorre el mundo en busca de un antidoto que le permita librarse de su Alter Ego. Perseguido por el ejercito y dominado por su propia rabia, es incapaz de sacarse de la cabeza a Betty Ross (Liv Tyler), por lo que decide volver a la civilizacion. Mientras se enfrenta a una extrana criatura, el agente de la KGB Emil Blonsky (Tim Roth) se expone a una dosis de radiacion mas intensa que la que convirtio a Bruce en Hulk. Emil hace responsable a Hulk de su terrible situacion, y la ciudad de Nueva York se convierte en el escenario de la ultima batalla entre las dos criaturas mas poderosas que jamas pisaron la Tierra
http://www.imdb.com/title/tt0800080/
Trailer



General
Format : Matroska
Format version : Version 4 / Version 2
File size : 8.06 GiB
Duration : 1 h 52 min
Overall bit rate : 10.3 Mb/s
Movie name : The Incredible Hulk (2008) 1080p
Encoded date : UTC 2017-09-14 22:39:08
Writing application : mkvmerge v15.0.0 (Duel with the Devil) 64-bit
Writing library : libebml v1.3.5 + libmatroska v1.4.5
Video
ID : 1
Format : AVC
Format/Info : Advanced Video Codec
Format profile : High@L4.1
Format settings, CABAC : Yes
Format settings, ReFrames : 4 frames
Codec ID : V_MPEG4/ISO/AVC
Duration : 1 h 52 min
Bit rate : 8 000 kb/s
Width : 1 920 pixels
Height : 816 pixels
Display aspect ratio : 2.35:1
Frame rate mode : Constant
Frame rate : 23.976 (24000/1001) FPS
Color space : YUV
Chroma subsampling : 4:2:0
Bit depth : 8 bits
Scan type : Progressive
Bits/(Pixel*Frame) : 0.213
Stream size : 6.27 GiB (78%)
Title : The Incredible Hulk (2008) 1080p
Writing library : x264 core 148 r2708 86b7198
Language : English
Default : Yes
Forced : No
Color range : Limited
Color primaries : BT.709
Transfer characteristics : BT.709
Matrix coefficients : BT.709
Audio #1
ID : 2
Format : DTS
Format/Info : Digital Theater Systems
Mode : 16
Format settings, Endianness : Big
Codec ID : A_DTS
Duration : 1 h 52 min
Bit rate mode : Constant
Bit rate : 768 kb/s
Channel(s) : 6 channels
Channel positions : Front: L C R, Side: L R, LFE
Sampling rate : 48.0 kHz
Frame rate : 93.750 FPS (512 spf)
Bit depth : 24 bits
Compression mode : Lossy
Stream size : 617 MiB (7%)
Title : DTS Bluray
Language : Spanish
Default : Yes
Forced : No
Audio #2
ID : 3
Format : DTS
Format/Info : Digital Theater Systems
Mode : 16
Format settings, Endianness : Big
Codec ID : A_DTS
Duration : 1 h 52 min
Bit rate mode : Constant
Bit rate : 1 510 kb/s
Channel(s) : 6 channels
Channel positions : Front: L C R, Side: L R, LFE
Sampling rate : 48.0 kHz
Frame rate : 93.750 FPS (512 spf)
Bit depth : 24 bits
Compression mode : Lossy
Stream size : 1.18 GiB (15%)
Title : DTS
Language : English
Default : No
Forced : No
Text #1
ID : 4
Format : UTF-8
Codec ID : S_TEXT/UTF8
Codec ID/Info : UTF-8 Plain Text
Duration : 1 h 43 min
Bit rate : 1 b/s
Count of elements : 51
Stream size : 1.24 KiB (0%)
Title : Subtit_Forz
Language : Spanish
Default : Yes
Forced : No
Text #2
ID : 5
Format : UTF-8
Codec ID : S_TEXT/UTF8
Codec ID/Info : UTF-8 Plain Text
Duration : 1 h 44 min
Bit rate : 28 b/s
Count of elements : 752
Stream size : 21.7 KiB (0%)
Title : Subtit_Complet
Language : Spanish
Default : No
Forced : No







http://lupaste.com/?v=24344

Ver el tema anterior Ver el tema siguiente Volver arriba Mensaje [Página 1 de 1.]

Permisos de este foro:
No puedes responder a temas en este foro.