Conectarse

Recuperar mi contraseña



Noticias Undercity

Mas !
Los posteadores más activos del mes
ferny2006
 
BladeMaster666
 
gokuzgt1
 

Notificaciones
Afiliados Elite
botones 40x40
Hopes and Dreams (Undertale)
Botones 88x31

No estás conectado. Conéctate o registrate

Ver el tema anterior Ver el tema siguiente Ir abajo Mensaje [Página 1 de 1.]

ferny2006

avatar
Memoria LLena
Memoria LLena
Ver perfil de usuario



TITULO ORIGINAL: Abraham Lincoln: Vampire Hunter
ANO: 2012
DURACION: 105 min.
PAIS: USA
DIRECTOR: Timur Bekmambetov
GUION: Seth Grahame-Smith, Simon Kinberg (Novela: Seth Grahame-Smith)
REPARTO: Benjamin Walker, Mary Elizabeth Winstead, Dominic Cooper, Rufus Sewell, Marton Csokas, Anthony Mackie, Robin McLeavy, Jimmi Simpson, Jaqueline Fleming, Alan Tudyk
PRODUCTORA: Abraham Productions / Bazelevs Production / Tim Burton Productions
GENERO: Fantastico. Terror. Thriller | Vampiros. Siglo XIX
http://www.imdb.com/title/tt1611224/
Sinopsis: La madre del Presidente Lincoln es asesinada por una criatura sobrenatural, hecho que alimenta su pasion por acabar con los vampiros y todos sus aliados.
Trailer



General
Format: Matroska
Format version: Version 2
File size : 9.56 GiB
Duration : 1h 45mn
Overall bit rate mode : Variable
Overall bit rate: 13.0 Mbps
Encoded date: UTC 2012-10-13 20:09:55
Writing application : mkvmerge v5.7.0 ('The Whirlwind') built on Jul 8 2012 20:08:51
Writing library: libebml v1.2.3 + libmatroska v1.3.0
Video
ID: 1
Format : AVC
Format/Info: Advanced Video Codec
Format profile High@L4.1
Format settings, CABAC : Yes
Format settings, ReFrames : 2 frames
Codec ID : V_MPEG4/ISO/AVC
Duration : 1h 45mn
Bit rate: 10.1 Mbps
Width : 1 920 pixels
Height : 800 pixels
Display aspect ratio : 2.40:1
Frame rate : 23.976 fps
Color space: YUV
Chroma subsampling 4:2:0
Bit depth : 8 bits
Scan type : Progressive
Bits/(Pixel*Frame): 0.274
Stream size : 7.40 GiB (77%)
Writing library : x264 core
Language : English
Default : Yes
Forced : No
Color primaries : BT.709-5, BT.1361, IEC 61966-2-4, SMPTE RP177
Transfer characteristics : BT.709-5, BT.1361
Matrix coefficients : BT.709-5, BT.1361, IEC 61966-2-4 709, SMPTE RP177
Audio #1
ID: 2
Format : AC-3
Format/Info: Audio Coding 3
Mode extension: CM (complete main)
Codec ID : A_AC3
Duration: 1h 45mn
Bit rate mode: Constant
Bit rate: 448 Kbps
Channel(s) : 6 channels
Channel positions: Front: L C R, Side: L R, LFE
Sampling rate: 48.0 KHz
Bit depth: 16 bits
Compression mode: Lossy
Stream size : 336 MiB (3%)
Title: AC3 5.1
Language: Spanish
Default: Yes
Forced : No
Audio #2
ID: 3
Format : AC-3
Format/Info : Audio Coding 3
Mode extension : CM (complete main)
Codec ID : A_AC3
Duration : 1h 45mn
Bit rate mode : Constant
Bit rate : 640 Kbps
Channel(s) : 6 channels
Channel positions : Front: L C R, Side: L R, LFE
Sampling rate : 48.0 KHz
Bit depth : 16 bits
Compression mode : Lossy
Stream size : 481 MiB (5%)
Title : AC3 5.1
Language : English
Default : No
Forced : No
Audio #3
ID : 4
Format : DTS
Format/Info : Digital Theater Systems
Format profile : MA / Core
Codec ID : A_DTS
Duration : 1h 45mn
Bit rate mode : Variable
Bit rate : 1 597 Kbps / 1 510 Kbps
Channel(s) : 8 channels / 6 channels
Channel positions : Front: L C R, Side: L R, Back: L R, LFE / Front: L C R, Side: L R, LFE
Sampling rate : 48.0 KHz
Bit depth : 24 bits
Compression mode : Lossless / Lossy
Title : DTS 7.1
Language : English
Default : No
Forced : No
Text #1
ID : 5
Format : UTF-8
Codec ID : S_TEXT/UTF8
Codec ID/Info : UTF-8 Plain Text
Title : Forzados
Language : Spanish
Default : Yes
Forced : No
Text #2
ID : 6
Format : UTF-8
Codec ID : S_TEXT/UTF8
Codec ID/Info : UTF-8 Plain Text
Language : Spanish
Default : No
Forced : No
Text #3
ID : 7
Format : UTF-8
Codec ID : S_TEXT/UTF8
Codec ID/Info : UTF-8 Plain Text
Language : English
Default : No
Forced : No





Buy Premium Account To Get High Speed Download
http://lupaste.com/?v=25227

Ver el tema anterior Ver el tema siguiente Volver arriba Mensaje [Página 1 de 1.]

Permisos de este foro:
No puedes responder a temas en este foro.