Conectarse

Recuperar mi contraseña



Noticias Undercity

Mas !
Los posteadores más activos del mes
ferny2006
 
BladeMaster666
 
gokuzgt1
 

Notificaciones
Afiliados Elite
botones 40x40
Hopes and Dreams (Undertale)
Botones 88x31

No estás conectado. Conéctate o registrate

Ver el tema anterior Ver el tema siguiente Ir abajo Mensaje [Página 1 de 1.]

ferny2006

avatar
Memoria LLena
Memoria LLena
Ver perfil de usuario



TITULO ORIGINAL: Beauty and the Beast
ANO: 1991
DURACION: 1h 31mn
PAIS: USA
DIRECTOR: Gary Trousdale, Kirk Wise
GUION: Linda Woolverton
REPARTO: Animation
PRODUCTORA: Walt Disney
GENERO: Animacion. Fantastico. Romance. Musical. Infantil | 3-D
Sinopsis: Una hermosa joven llamada Bella acepta alojarse en un castillo con una bestia a cambio de la libertad de su padre. La bestia es, en realidad, un principe encantado. Para romper el hechizo, debera ganarse el amor de una preciosa dama antes de que caiga el ultimo petalo de una rosa encantada.
http://www.imdb.com/title/tt0101414/
Trailer



General
Format : Matroska
Format version : Version 2
File size : 7.46 GiB
Duration : 1h 24mn
Overall bit rate : 12.6 Mbps
Encoded date : UTC 2012-10-30 01:47:18
Writing application : mkvmerge v5.7.0 (The Whirlwind) built on Jul 8 2012 20:08:51
Writing library : libebml v1.2.3 + libmatroska v1.3.0
Video
ID : 1
Format : AVC
Format/Info : Advanced Video Codec
Format profile : High@L4.1
Format settings, CABAC : Yes
Format settings, ReFrames : 2 frames
Codec ID : V_MPEG4/ISO/AVC
Duration : 1h 24mn
Bit rate : 9 737 Kbps
Width : 1 920 pixels
Height : 1 070 pixels
Display aspect ratio : 16:9
Frame rate : 23.976 fps
Color space : YUV
Chroma subsampling : 4:2:0
Bit depth : 8 bits
Scan type : Progressive
Bits/(Pixel*Frame) : 0.198
Stream size : 5.78 GiB (77%)
Writing library : x264 core
Language : English
Default : Yes
Forced : No
Color primaries : BT.709-5, BT.1361, IEC 61966-2-4, SMPTE RP177
Transfer characteristics : BT.709-5, BT.1361
Matrix coefficients : BT.709-5, BT.1361, IEC 61966-2-4 709, SMPTE RP177
Audio #1
ID : 2
Format : AC-3
Format/Info : Audio Coding 3
Mode extension : CM (complete main)
Codec ID : A_AC3
Duration : 1h 24mn
Bit rate mode : Constant
Bit rate : 448 Kbps
Channel(s) : 6 channels
Channel positions : Front: L C R, Side: L R, LFE
Sampling rate : 48.0 KHz
Bit depth : 16 bits
Compression mode : Lossy
Stream size : 272 MiB (4%)
Title : AC3 5.1
Language : Spanish
Default : Yes
Forced : No
Audio #2
ID : 3
Format : AC-3
Format/Info : Audio Coding 3
Mode extension : CM (complete main)
Codec ID : A_AC3
Duration : 1h 24mn
Bit rate mode : Constant
Bit rate : 640 Kbps
Channel(s) : 6 channels
Channel positions : Front: L C R, Side: L R, LFE
Sampling rate : 48.0 KHz
Bit depth : 16 bits
Compression mode : Lossy
Stream size : 389 MiB (5%)
Title : AC3 5.1
Language : English
Default : No
Forced : No
Audio #3
ID : 4
Format : DTS
Format/Info : Digital Theater Systems
Codec ID : A_DTS
Duration : 1h 24mn
Bit rate mode : Constant
Bit rate : 1 510 Kbps
Channel(s) : 6 channels
Channel positions : Front: L C R, Side: L R, LFE
Sampling rate : 48.0 KHz
Bit depth : 24 bits
Compression mode : Lossy
Stream size : 917 MiB (12%)
Title : DTS 5.1
Language : English
Default : No
Forced : No
Text #1
ID : 5
Format : UTF-8
Codec ID : S_TEXT/UTF8
Codec ID/Info : UTF-8 Plain Text
Title : Forz
Language : Spanish
Default : Yes
Forced : No
Text #2
ID : 6
Format : UTF-8
Codec ID : S_TEXT/UTF8
Codec ID/Info : UTF-8 Plain Text
Language : Spanish
Default : No
Forced : No
Text #3
ID : 7
Format : UTF-8
Codec ID : S_TEXT/UTF8
Codec ID/Info : UTF-8 Plain Text
Language : English
Default : No
Forced : No







Buy Premium Account To Get High Speed Download
http://lupaste.com/?v=25231

Ver el tema anterior Ver el tema siguiente Volver arriba Mensaje [Página 1 de 1.]

Permisos de este foro:
No puedes responder a temas en este foro.