Conectarse

Recuperar mi contraseña



Noticias Undercity

Mas !
Los posteadores más activos del mes
ad-team
 
gokuzgt1
 

Notificaciones
Afiliados Elite
botones 40x40
Hopes and Dreams (Undertale)
Botones 88x31

No estás conectado. Conéctate o registrate

Ver el tema anterior Ver el tema siguiente Ir abajo Mensaje [Página 1 de 1.]

ferny2006

avatar
Memoria LLena
Memoria LLena
Ver perfil de usuario



Titulo original: Dawn of the Planet of the Apes
Ano: 2014
Duracion: 130 min.
Pais: Estados Unidos
Director: Matt Reeves
Guion: Rick Jaffa, Amanda Silver, Mark Bomback
Musica: Michael Giacchino
Fotografia: Michael Seresin
Reparto: Andy Serkis, Jason Clarke, Gary Oldman, Keri Russell, Toby Kebbell, Kodi Smit-McPhee, Enrique Murciano, Kirk Acevedo, Judy Greer
Productora: 20th Century Fox / Chernin Entertainment
Genero: Ciencia ficcion. Accion | Futuro postapocaliptico. Simios. Secuela. 3-D
Sinopsis: Tras la aparicion del devastador "virus de los simios" desarrollado en un laboratorio y que casi acabo con los humanos, un grupo de simios muy evolucionados, capitaneados por Cesar, se han convertido en la raza dominante del planeta. La unica amenaza para su desarrollo la representa un grupo de seres humanos que han sobrevivido al virus, al que ahora son inmunes. Los hombres necesitan la energia de una presa cerca del asentamiento de lo simios, asi que Cesar, siempre razonable y buscando el bien de los suyos, firma una tregua de paz que evite estallar una guerra que determinara cual sera la raza dominante... Secuela de la pelicula "El origen del planeta de los simios".
http://www.imdb.com/title/tt2103281/
Trailer



General
Format : Matroska
Format version : Version 4 / Version 2
File size : 9.92 GiB
Duration : 2h 10mn
Overall bit rate : 10.9 Mbps
Encoded date : UTC 2015-06-11 23:29:04
Writing application : mkvmerge v7.1.0 (Good Love) 64bit built on Jul 27 2014 13:06:55
Writing library : libebml v1.3.0 + libmatroska v1.4.1
Video
ID : 1
Format : AVC
Format/Info : Advanced Video Codec
Format profile : High@L4.0
Format settings, CABAC : No
Format settings, ReFrames : 1 frame
Format settings, GOP : M=1, N=12
Codec ID : V_MPEG4/ISO/AVC
Duration : 2h 10mn
Bit rate : 8 079 Kbps
Width : 1 920 pixels
Height : 1 040 pixels
Display aspect ratio : 1.85:1
Frame rate mode : Constant
Frame rate : 23.976 fps
Color space : YUV
Chroma subsampling : 4:2:0
Bit depth : 8 bits
Scan type : Progressive
Bits/(Pixel*Frame) : 0.169
Stream size : 7.36 GiB (74%)
Default : Yes
Forced : No

Audio #1
ID : 2
Format : AC-3
Format/Info : Audio Coding 3
Mode extension : CM (complete main)
Format settings, Endianness : Big
Codec ID : A_AC3
Duration : 2h 10mn
Bit rate mode : Constant
Bit rate : 448 Kbps
Channel(s) : 6 channels
Channel positions : Front: L C R, Side: L R, LFE
Sampling rate : 48.0 KHz
Bit depth : 16 bits
Compression mode : Lossy
Delay relative to video : 300ms
Stream size : 418 MiB (4%)
Title :AC3 5.1 [Bluray]
Language : Spanish
Default : Yes
Forced : No
Audio #2
ID : 3
Format : AC-3
Format/Info : Audio Coding 3
Mode extension : CM (complete main)
Format settings, Endianness : Big
Codec ID : A_AC3
Duration : 2h 10mn
Bit rate mode : Constant
Bit rate : 640 Kbps
Channel(s) : 6 channels
Channel positions : Front: L C R, Side: L R, LFE
Sampling rate : 48.0 KHz
Bit depth : 16 bits
Compression mode : Lossy
Stream size : 597 MiB (6%)
Title : AC3 5.1
Language : English
Default : No
Forced : No
Audio #3
ID : 4
Format : DTS
Format/Info : Digital Theater Systems
Format profile : ES
Mode : 16
Format settings, Endianness : Big
Codec ID : A_DTS
Duration : 2h 10mn
Bit rate mode : Constant
Bit rate : 1 509 Kbps
Channel(s) : 6 channels
Channel positions : Front: L C R, Side: L R, LFE
Sampling rate : 48.0 KHz
Bit depth : 24 bits
Compression mode : Lossy
Stream size : 1.37 GiB (14%)
Title : DTS @ 1509 KB/s 48 KHz @ 5.1 CH(s)
Language : English
Default : No
Forced : No
Text #1
ID : 5
Format : UTF-8
Codec ID : S_TEXT/UTF8
Codec ID/Info : UTF-8 Plain Text
Title : Forz
Language : Spanish
Default : Yes
Forced : No
Text #2
ID : 6
Format : UTF-8
Codec ID : S_TEXT/UTF8
Codec ID/Info : UTF-8 Plain Text
Title : Complet
Language : Spanish
Default : No
Forced : No






Buy Premium Account To Get High Speed Download
http://lupaste.com/?v=25234

Ver el tema anterior Ver el tema siguiente Volver arriba Mensaje [Página 1 de 1.]

Permisos de este foro:
No puedes responder a temas en este foro.