Conectarse

Recuperar mi contraseña



Noticias Undercity

Mas !
Los posteadores más activos del mes
ad-team
 
gokuzgt1
 

Notificaciones
Afiliados Elite
botones 40x40
Hopes and Dreams (Undertale)
Botones 88x31

No estás conectado. Conéctate o registrate

Ver el tema anterior Ver el tema siguiente Ir abajo Mensaje [Página 1 de 1.]

1 Godzilla [2014] 3D H-SBS 1080p [Ing-Lat]

« el Miér Oct 11, 2017 1:01 am »

ferny2006

avatar
Memoria LLena
Memoria LLena
Ver perfil de usuario



Titulo original: Godzilla
Ano: 2014
Duracion: 123 min.
Pais: Estados Unidos
Director: Gareth Edwards
http://www.imdb.com/title/tt0831387
Guion: Max Borenstein (Historia: Dave Callaham)
Musica: Alexandre Desplat
Fotografia: Seamus McGarvey
Reparto: Aaron Johnson, Ken Watanabe, Elizabeth Olsen, David Strathairn, Bryan Cranston, Sally Hawkins, Juliette Binoche, CJ Adams, Richard T. Jones, Al Sapienza, Patrick Sabongui
Productora: Legendary Pictures / Warner Bros
Genero: Ciencia ficcion. Accion. Drama | Monstruos. Cine epico. 3-D
Sinopsis: Un monstruo marino, producto de mutaciones radioactivas provocadas por el hombre decadas atras, se enfrenta a malvadas criaturas que, animadas por la arrogancia cientifica de la humanidad, amenazan la vida de los hombres.



General
Format : Matroska
Format version : Version 4 / Version 2
File size : 9.68 GiB
Duration : 2h 3mn
Overall bit rate : 11.3 Mbps
Encoded date : UTC 2014-08-26 03:56:54
Writing application : mkvmerge v6.8.0 ('Theme for Great Cities') 64bit built on Mar 2 2014 21:34:26
Writing library : libebml v1.3.0 + libmatroska v1.4.1
Video
ID : 1
Format : AVC
Format/Info : Advanced Video Codec
Format profile : High@L4.1
Format settings, CABAC : Yes
Format settings, ReFrames : 5 frames
Codec ID : V_MPEG4/ISO/AVC
Duration : 2h 3mn
Bit rate : 8 656 Kbps
Width : 1 920 pixels
Height : 800 pixels
Display aspect ratio : 2.40:1
Frame rate mode : Constant
Frame rate : 23.976 fps
Color space : YUV
Chroma subsampling : 4:2:0
Bit depth : 8 bits
Scan type : Progressive
Bits/(Pixel*Frame) : 0.235
Stream size : 7.25 GiB (75%)
Writing library : x264 core 142 r2431 ac76440
Language : English
Default : Yes
Forced : No
Audio #1
ID : 2
Format : AC-3
Format/Info : Audio Coding 3
Mode extension : CM (complete main)
Format settings, Endianness : Big
Codec ID : A_AC3
Duration : 2h 3mn
Bit rate mode : Constant
Bit rate : 448 Kbps
Channel(s) : 6 channels
Channel positions : Front: L C R, Side: L R, LFE
Sampling rate : 48.0 KHz
Bit depth : 16 bits
Compression mode : Lossy
Stream size : 395 MiB (4%)
Title : AC3 5.1 [BluRay]
Language : Spanish
Default : Yes
Forced : No
Audio #2
ID : 3
Format : AC-3
Format/Info : Audio Coding 3
Mode extension : CM (complete main)
Format settings, Endianness : Big
Codec ID : A_AC3
Duration : 2h 3mn
Bit rate mode : Constant
Bit rate : 640 Kbps
Channel(s) : 6 channels
Channel positions : Front: L C R, Side: L R, LFE
Sampling rate : 48.0 KHz
Bit depth : 16 bits
Compression mode : Lossy
Stream size : 564 MiB (6%)
Title : AC3 5.1
Language : English
Default : No
Forced : No
Audio #3
ID : 4
Format : DTS
Format/Info : Digital Theater Systems
Mode : 16
Format settings, Endianness : Big
Codec ID : A_DTS
Duration : 2h 3mn
Bit rate mode : Constant
Bit rate : 1 509 Kbps
Channel(s) : 6 channels
Channel positions : Front: L C R, Side: L R, LFE
Sampling rate : 48.0 KHz
Bit depth : 24 bits
Compression mode : Lossy
Stream size : 1.30 GiB (13%)
Title : DTS 5.1
Language : English
Default : No
Forced : No
Text #1
ID : 5
Format : VobSub
Muxing mode : zlib
Codec ID : S_VOBSUB
Codec ID/Info : The same subtitle format used on DVDs
Language : Latin
Default : Yes
Forced : No
Text #2
ID : 6
Format : VobSub
Muxing mode : zlib
Codec ID : S_VOBSUB
Codec ID/Info : The same subtitle format used on DVDs
Language : Latin
Default : No
Forced : No





Buy Premium Account To Get High Speed Download
http://lupaste.com/?v=25240

Ver el tema anterior Ver el tema siguiente Volver arriba Mensaje [Página 1 de 1.]

Permisos de este foro:
No puedes responder a temas en este foro.