Conectarse

Recuperar mi contraseña



Noticias Undercity

Mas !
Los posteadores más activos del mes
ad-team
 
gokuzgt1
 

Notificaciones
Afiliados Elite
botones 40x40
Hopes and Dreams (Undertale)
Botones 88x31

No estás conectado. Conéctate o registrate

Ver el tema anterior Ver el tema siguiente Ir abajo Mensaje [Página 1 de 1.]

1 Los ilusionautas [2012] 3D H-SBS 1080p [Lat]

« el Miér Oct 11, 2017 8:31 pm »

ferny2006

avatar
Memoria LLena
Memoria LLena
Ver perfil de usuario



TITULO ORIGINAL: Los ilusionautas
ANO: 2012
PAIS: Peru
DIRECTOR: Eduardo Schuldt
http://www.imdb.com/title/tt1893371
GUION: Kathy Borland, Abraham Vurnbrand
REPARTO: Animation
PRODUCTORA: Aronnax Animation Studios
GENERO: Animacion. Fantastico. Aventuras | 3-D
Sinopsis: Cuando un experimento secreto sale mal y las historias de un escritor de ciencia ficcion se mezclan, el gobierno frances tiene que convocar a un grupo de 4 ninos acompanados de un perrito, para ingresar a la imaginacion del escritor y resolver el desastre literario. Una pelicula llena de aventuras, �con poca ciencia y mucha ficcion�.
Trailer



General
Format : Matroska
Format version : Version 2
File size : 7.57 GiB
Duration : 1h 21mn
Overall bit rate : 13.3 Mbps
Encoded date : UTC 2013-07-02 21:53:58
Writing application : mkvmerge v5.7.0 ('The Whirlwind') built on Jul 8 2012 20:08:51
Writing library : libebml v1.2.3 + libmatroska v1.3.0
Video
ID : 1
Format : AVC
Format/Info : Advanced Video Codec
Format profile : High@L4.1
Format settings, CABAC : Yes
Format settings, ReFrames : 2 frames
Codec ID : V_MPEG4/ISO/AVC
Duration : 1h 21mn
Bit rate : 12.5 Mbps
Width : 1 920 pixels
Height : 1 080 pixels
Display aspect ratio : 16:9
Frame rate mode : Constant
Frame rate : 23.976 fps
Color space : YUV
Chroma subsampling : 4:2:0
Bit depth : 8 bits
Scan type : Progressive
Bits/(Pixel*Frame) : 0.252
Stream size : 7.17 GiB (95%)
Writing library : x264 core
Language : English
Default : Yes
Forced : No
Color primaries : BT.709
Transfer characteristics : BT.709
Matrix coefficients : BT.709
Audio
ID : 2
Format : AC-3
Format/Info : Audio Coding 3
Mode extension : CM (complete main)
Format settings, Endianness : Big
Codec ID : A_AC3
Duration : 1h 21mn
Bit rate mode : Constant
Bit rate : 448 Kbps
Channel(s) : 6 channels
Channel positions : Front: L C R, Side: L R, LFE
Sampling rate : 48.0 KHz
Bit depth : 16 bits
Compression mode : Lossy
Stream size : 262 MiB (3%)
Language : Spanish
Default : Yes
Forced : No







Buy Premium Account To Get High Speed Download
http://lupaste.com/?v=22286

Ver el tema anterior Ver el tema siguiente Volver arriba Mensaje [Página 1 de 1.]

Permisos de este foro:
No puedes responder a temas en este foro.