Conectarse

Recuperar mi contraseña



Noticias Undercity

Mas !
Los posteadores más activos del mes
ferny2006
 
BladeMaster666
 
gokuzgt1
 

Notificaciones
Afiliados Elite
botones 40x40
Hopes and Dreams (Undertale)
Botones 88x31

No estás conectado. Conéctate o registrate

Ver el tema anterior Ver el tema siguiente Ir abajo Mensaje [Página 1 de 1.]

1 Maleficent [2014] 3D H-SBS 1080p [Ing-Lat]

« el Miér Oct 11, 2017 8:46 pm »

ferny2006

avatar
Memoria LLena
Memoria LLena
Ver perfil de usuario



Titulo original: Maleficent
Ano: 2014
Duracion: 97 min.
Pais: Estados Unidos
Director: Robert Stromberg
Guion: Linda Woolverton, Paul Dini, John Lee Hancock
Musica: James Newton Howard
Fotografia: Dean Semler
Reparto: Angelina Jolie, Elle Fanning, Juno Temple, Sharlto Copley, Kenneth Cranham, Lesley Manville, Imelda Staunton, Sam Riley, Ella Purnell, Brenton Thwaites, Christian Wolf-La'Moy
Productora: Walt Disney Pictures / Moving Picture Company (MPC) / Roth Films
Genero: Fantastico. Aventuras | Cuentos. 3-D
Sinopsis: Es la historia jamas contada de Malefica, la villana mas querida de Disney, la mala de �Sleeping Beauty� (La Bella durmiente), el clasico de 1959. La pelicula relata los acontecimientos que endurecieron su corazon y la llevaron a lanzar una maldicion sobre la pequena Aurora.
http://www.imdb.com/title/tt1587310/


[center]

General
Format : Matroska
Format version : Version 4 / Version 2
File size : 10.6 GiB
Duration : 1h 37mn
Overall bit rate : 15.6 Mbps
Encoded date : UTC 2014-09-13 18:52:16
Writing application : mkvmerge v7.1.0 ('Good Love') 64bit built on Jul 27 2014 13:06:55
Writing library : libebml v1.3.0 + libmatroska v1.4.1
Video
ID : 1
Format : AVC
Format/Info : Advanced Video Codec
Format profile : High@L4.1
Format settings, CABAC : Yes
Format settings, ReFrames : 2 frames
Codec ID : V_MPEG4/ISO/AVC
Duration : 1h 37mn
Bit rate : 12.5 Mbps
Width : 1 920 pixels
Height : 800 pixels
Display aspect ratio : 2.40:1
Frame rate mode : Constant
Frame rate : 23.976 fps
Color space : YUV
Chroma subsampling : 4:2:0
Bit depth : 8 bits
Scan type : Progressive
Bits/(Pixel*Frame) : 0.340
Stream size : 8.52 GiB (80%)
Writing library : x264 core
Language : English
Default : Yes
Forced : No
Color primaries : BT.709
Transfer characteristics : BT.709
Matrix coefficients : BT.709
Audio #1
ID : 2
Format : AC-3
Format/Info : Audio Coding 3
Mode extension : CM (complete main)
Format settings, Endianness : Big
Codec ID : A_AC3
Duration : 1h 37mn
Bit rate mode : Constant
Bit rate : 640 Kbps
Channel(s) : 6 channels
Channel positions : Front: L C R, Side: L R, LFE
Sampling rate : 48.0 KHz
Bit depth : 16 bits
Compression mode : Lossy
Stream size : 446 MiB (4%)
Title : AC3 5.1
Language : Spanish
Default : Yes
Forced : No
Audio #2
ID : 3
Format : AC-3
Format/Info : Audio Coding 3
Mode extension : CM (complete main)
Format settings, Endianness : Big
Codec ID : A_AC3
Duration : 1h 37mn
Bit rate mode : Constant
Bit rate : 640 Kbps
Channel(s) : 6 channels
Channel positions : Front: L C R, Side: L R, LFE
Sampling rate : 48.0 KHz
Bit depth : 16 bits
Compression mode : Lossy
Stream size : 446 MiB (4%)
Title : AC3 5.1
Language : English
Default : No
Forced : No
Audio #3
ID : 4
Format : DTS
Format/Info : Digital Theater Systems
Mode : 16
Format settings, Endianness : Big
Codec ID : A_DTS
Duration : 1h 37mn
Bit rate mode : Constant
Bit rate : 1 509 Kbps
Channel(s) : 6 channels
Channel positions : Front: L C R, Side: L R, LFE
Sampling rate : 48.0 KHz
Bit depth : 24 bits
Compression mode : Lossy
Stream size : 1.03 GiB (10%)
Title : DTS 5.1
Language : English
Default : No
Forced : No
Text
ID : 5
Format : UTF-8
Codec ID : S_TEXT/UTF8
Codec ID/Info : UTF-8 Plain Text
Title : www.club-hd.com
Language : Spanish
Default : No
Forced : No






Buy Premium Account To Get High Speed Download
http://lupaste.com/?v=21461

Ver el tema anterior Ver el tema siguiente Volver arriba Mensaje [Página 1 de 1.]

Permisos de este foro:
No puedes responder a temas en este foro.