Conectarse

Recuperar mi contraseña



Noticias Undercity

Mas !
Los posteadores más activos del mes
BladeMaster666
 
ad-team
 
ferny2006
 
gokuzgt1
 
PandaGriz
 
Gimena
 
QueenYowanePikuo
 

Notificaciones
Afiliados Elite
botones 40x40
Hopes and Dreams (Undertale)
Botones 88x31

No estás conectado. Conéctate o registrate

Ver el tema anterior Ver el tema siguiente Ir abajo Mensaje [Página 1 de 1.]

1 The Good Dinosaur [2015] 3D H-SBS 1080p [Ing-Lat]

« el Mar Nov 07, 2017 4:13 am »

ferny2006

avatar
Memoria LLena
Memoria LLena
Ver perfil de usuario



TITULO ORIGINAL: The Good Dinosaur aka
ANO: 2015
DURACION: 100 min.
Pais: Estados Unidos
DIRECTOR: Peter Sohn
GUION: Meg LeFauve (Historia: Peter Sohn, Erik Benson, Meg LeFauve, Kelsey Mann, Bob Peterson)
MUSICA: Jeff Danna, Mychael Danna
FOTOGRAFIA: Animation
REPARTO: Animation
PRODUCTORA: Pixar Animation Studios / Walt Disney Pictures
GENERO: Animacion. Comedia. Aventuras | Dinosaurios. Prehistoria. Pixar. 3-D
Sinopsis: �Que hubiera pasado si el asteroide que cambio para siempre la vida en la Tierra hubiera esquivado el planeta y los dinosaurios no se hubieran extinguido nunca? Un viaje al mundo de los dinosaurios donde un Apatosaurus llamado Arlo se hace amigo de un humano, aunque resulte asombroso. Mientras viaja por un paisaje desolado y misterioso, Arlo aprende a enfrentarse a sus temores y descubre de lo que es capaz.
http://www.imdb.com/title/tt1979388/
Trailer
https://youtu.be/FIVVMJ7JiFE



General
Format : Matroska
Format version : Version 4 / Version 2
File size : 13.1 GiB
Duration : 1h 33mn
Overall bit rate : 20.0 Mbps
Encoded date : UTC 2016-02-10 23:56:18
Writing application : mkvmerge v7.1.0 (Good Love) 64bit built on Jul 27 2014 13:06:55
Writing library : libebml v1.3.0 + libmatroska v1.4.1
Video
ID : 1
Format : AVC
Format/Info : Advanced Video Codec
Format profile : High@L4.1
Format settings, CABAC : Yes
Format settings, ReFrames : 2 frames
Codec ID : V_MPEG4/ISO/AVC
Duration : 1h 33mn
Bit rate : 15.5 Mbps
Width : 1 920 pixels
Height : 1 080 pixels
Display aspect ratio : 16:9
Frame rate mode : Constant
Frame rate : 23.976 (24000/1001) fps
Color space : YUV
Chroma subsampling : 4:2:0
Bit depth : 8 bits
Scan type : Progressive
Bits/(Pixel*Frame) : 0.312
Stream size : 10.1 GiB (77%)
Writing library : x264 core 142
Language : English
Default : Yes
Forced : No
Color range : Limited
Color primaries : BT.709
Transfer characteristics : BT.709
Matrix coefficients : BT.709
Audio #1
ID : 2
Format : AC-3
Format/Info : Audio Coding 3
Mode extension : CM (complete main)
Format settings, Endianness : Big
Codec ID : A_AC3
Duration : 1h 33mn
Bit rate mode : Constant
Bit rate : 640 Kbps
Channel(s) : 6 channels
Channel positions : Front: L C R, Side: L R, LFE
Sampling rate : 48.0 KHz
Frame rate : 31.250 fps (1536 spf)
Compression mode : Lossy
Stream size : 430 MiB (3%)
Title : Ac3 5.1 Bluray
Language : Spanish
Default : Yes
Forced : No
Audio #2
ID : 3
Format : AC-3
Format/Info : Audio Coding 3
Mode extension : CM (complete main)
Format settings, Endianness : Big
Codec ID : A_AC3
Duration : 1h 33mn
Bit rate mode : Constant
Bit rate : 640 Kbps
Channel(s) : 6 channels
Channel positions : Front: L C R, Side: L R, LFE
Sampling rate : 48.0 KHz
Frame rate : 31.250 fps (1536 spf)
Compression mode : Lossy
Stream size : 430 MiB (3%)
Title : AC3 5.1
Language : English
Default : No
Forced : No
Audio #3
ID : 4
Format : DTS
Format/Info : Digital Theater Systems
Format profile : MA / Core
Mode : 16
Format settings, Endianness : Big
Codec ID : A_DTS
Duration : 1h 33mn
Bit rate mode : Variable / Constant
Bit rate : 3 344 Kbps / 1 509 Kbps
Channel(s) : 8 channels / 6 channels
Channel positions : Front: L C R, Side: L R, Back: L R, LFE / Front: L C R, Side: L R, LFE
Sampling rate : 48.0 KHz
Frame rate : 93.750 fps (512 spf)
Bit depth : 24 bits
Compression mode : Lossless / Lossy
Stream size : 2.19 GiB (17%)
Title : DTS 7.1
Language : English
Default : No
Forced : No
Text
ID : 5
Format : PGS
Muxing mode : zlib
Codec ID : S_HDMV/PGS
Codec ID/Info : Picture based subtitle format used on BDs/HD-DVDs
Duration : 1h 24mn
Bit rate : 5 745 bps
Count of elements : 954
Stream size : 3.45 MiB (0%)
Title : Spanish-PGS 3D
Language : Spanish
Default : No
Forced : No







Buy Premium Account To Get High Speed Download
http://lupaste.com/?v=23476

Ver el tema anterior Ver el tema siguiente Volver arriba Mensaje [Página 1 de 1.]

Permisos de este foro:
No puedes responder a temas en este foro.